<?xml version="1.0" standalone="no"?>
<!DOCTYPE svg PUBLIC "-//W3C//DTD SVG 1.1//EN" "http://www.w3.org/Graphics/SVG/1.1/DTD/svg11.dtd" >
<svg xmlns="http://www.w3.org/2000/svg">
<metadata>Generated by IcoMoon</metadata>
<defs>
<font id="icomoon" horiz-adv-x="1024">
<font-face units-per-em="1024" ascent="960" descent="-64" />
<missing-glyph horiz-adv-x="1024" />
<glyph unicode="&#x20;" horiz-adv-x="512" d="" />
<glyph unicode="&#xe900;" glyph-name="-6" d="M961.863 366.096c-10.625 14.698-31.166 18.062-46.041 7.437l-58.613-42.145c10.093 37.010 15.406 75.259 15.406 114.039 0 236.755-192.662 429.239-429.239 429.239-236.755 0-429.239-192.485-429.239-429.239s192.662-429.239 429.239-429.239c74.904 0 148.215 19.656 212.849 56.665 3.542 0.708 6.906 1.771 10.093 3.719 18.416 10.979 36.124 23.374 52.592 37.010 13.989 11.51 16.114 32.228 4.427 46.395-11.51 13.989-32.228 16.114-46.395 4.427-12.927-10.625-26.916-20.187-41.259-29.041-2.125-0.708-4.427-1.062-6.552-2.302-55.957-33.468-120.237-50.999-185.933-50.999-200.453 0-363.366 163.090-363.366 363.366s163.090 363.366 363.543 363.366c200.453 0 363.366-162.913 363.366-363.366 0-45.509-8.5-90.133-24.791-131.924l-46.572 111.914c-7.083 16.823-26.385 24.614-43.030 17.708-16.823-6.906-24.791-26.208-17.708-43.030l74.196-177.964c0.708-1.948 1.948-3.364 3.010-5.135 0.354-0.531 0.354-1.062 0.708-1.417 0.177-0.177 0.354-0.177 0.354-0.354 2.833-3.719 6.375-6.729 10.448-9.031 0.708-0.354 1.417-0.708 2.125-1.062 3.364-1.594 7.083-2.833 10.979-3.187 0.708 0 1.24 0.177 1.948 0 0.354 0 0.531-0.177 0.885-0.177 0.708 0 1.417 0.177 2.125 0.354 2.479 0.177 4.958 0.531 7.26 1.062 0.531 0.177 1.062 0.354 1.417 0.531 2.656 0.885 5.135 2.125 7.437 3.719 0.354 0.177 0.708 0.354 1.062 0.531l155.829 112.091c14.698 10.802 18.062 31.343 7.437 46.041zM571.403 587.976c13.104 12.573 13.458 33.468 0.708 46.572-12.573 13.104-33.468 13.458-46.572 0.708l-82.165-79.331-81.988 79.331c-13.104 12.573-33.999 12.396-46.572-0.708s-12.396-33.999 0.708-46.572l92.435-89.248v-19.302h-65.873c-18.239 0-32.937-14.698-32.937-32.937s14.698-32.937 32.937-32.937h65.873v-32.937h-65.873c-18.239 0-32.937-14.698-32.937-32.937s14.698-32.937 32.937-32.937h65.873v-69.238c0-18.239 14.698-32.937 32.937-32.937s32.937 14.698 32.937 32.937v69.238h65.873c18.239 0 32.937 14.698 32.937 32.937s-14.698 32.937-32.937 32.937h-65.873v32.937h65.873c18.239 0 32.937 14.698 32.937 32.937s-14.698 32.937-32.937 32.937h-65.873v14.166l97.571 94.383z" />
<glyph unicode="&#xe901;" glyph-name="uniE900" d="M533.753 840.353c-232.659 0-421.647-188.988-421.647-421.647s188.988-421.647 421.647-421.647c232.659 0 421.647 188.988 421.647 421.647s-188.988 421.647-421.647 421.647zM713.706 271.883l-201.788 116.706h-8.282v271.059h60.235v-231.906l179.953-103.906-30.118-51.953z" />
<glyph unicode="&#xe902;" glyph-name="-1" d="M276.96 820.899c80.432 0 145.636-65.205 145.636-145.638 0-80.43-65.202-145.635-145.636-145.635s-145.638 65.205-145.638 145.635c0 80.433 65.205 145.638 145.638 145.638zM349.569 689.057v55.777l-93.497-83.367-51.721 46.277v-55.777l51.721-46.278 93.497 83.368zM929.327 329.803c-5.321-0.29-11.528-0.442-18.626-0.442h-163.14c-4.138 0-8.276 2.071-12.414 6.207-4.138 4.143-6.208 7.686-6.208 10.644v0.885c-0.585 28.967-0.89 55.267-0.89 78.918v80.681c0 6.503 2.668 12.565 7.985 18.177 5.319 5.616 11.819 8.417 19.506 8.417 0.591 0 5.024 0.3 13.304 0.892 8.275 0.593 18.469 0.151 30.591-1.327 12.119-1.475 24.973-4.731 38.568-9.753 13.592-5.024 26.301-13.153 38.126-24.386 18.325-18.918 31.328-41.822 39.012-68.715 7.686-26.893 14.783-54.824 21.278-83.787 0-1.183 0.154-2.071 0.445-2.664 0.296-0.587 0.44-1.478 0.44-2.66 0-7.099-2.654-10.793-7.976-11.087l-0.001 0.001zM998.928 319.164c-4.434 33.397-12.267 67.537-23.496 102.41-11.238 34.875-28.078 67.688-50.544 98.413-12.409 17.145-27.777 31.922-46.108 44.333-18.222 12.367-37.869 22.492-58.516 30.155-20.691 7.685-41.675 13.147-62.956 16.398-21.279 3.251-41.675 3.988-61.181 2.216-6.497-0.587-11.968-5.175-16.402-13.742s-6.648-16.107-6.648-22.607v-427.376c0-10.644 3.84-19.803 11.526-27.486s16.84-11.524 27.484-11.524h15.962c0 14.775 2.807 28.819 8.424 42.118 5.619 13.301 13.3 24.966 23.054 35.018 9.756 10.051 21.129 18.036 34.136 23.944 13.002 5.911 27.187 8.869 42.554 8.869 15.373 0 29.999-2.071 43.894-6.209 13.892-4.137 26.014-10.638 36.348-19.504 10.348-8.869 18.625-20.393 24.832-34.581 6.202-14.188 9.304-31.334 9.304-51.428h36.358c3.544 0 6.357 1.775 8.427 5.318 2.061 3.55 3.84 7.835 5.312 12.864 1.465 4.925 2.504 9.967 3.106 15.070 0.593 5.026 0.887 9.314 0.887 12.858 0 18.324 0.15 41.973 0.442 70.936 0.301 28.954-1.773 60.135-6.207 93.534l0.008 0.001zM840.657 164.444c15.366 0 28.669-5.615 39.9-16.85 11.233-11.233 16.847-24.524 16.847-39.9 0-15.956-5.616-29.552-16.847-40.778-11.231-11.236-24.529-16.851-39.9-16.851-15.955 0-29.408 5.615-40.344 16.851-10.935 11.231-16.402 24.822-16.402 40.778 0 15.374 5.468 28.668 16.402 39.9 10.936 11.235 24.383 16.85 40.344 16.85v0zM230.634 165.325c-15.96 0-29.413-5.615-40.344-16.841-10.938-11.232-16.402-24.824-16.402-40.792 0-15.358 5.464-28.662 16.402-39.896 10.934-11.233 24.384-16.848 40.344-16.848s29.407 5.616 40.344 16.847c10.938 11.235 16.399 24.533 16.399 39.897 0 15.96-5.465 29.562-16.399 40.792-10.936 11.226-24.384 16.841-40.344 16.841zM457.159 721.268c4.402-15.663 6.623-31.958 6.623-48.882 0-25.814-4.91-49.953-14.736-72.402-9.821-22.449-23.15-42.091-39.983-58.927-16.838-16.833-36.472-30.028-58.927-39.565-22.453-9.538-46.298-14.308-71.558-14.308-25.816 0-49.948 4.77-72.396 14.308-22.45 9.539-42.089 22.732-58.927 39.565-16.838 16.836-30.165 36.478-39.984 58.927-9.824 22.449-14.736 46.584-14.736 72.402 0 2.821 0.073 5.62 0.189 8.407-8.449-10.369-15.1-21.7-19.92-34.006-5.323-13.592-7.981-27.486-7.981-41.673v-461.065c0-11.233 3.251-19.804 9.752-25.713 6.507-5.905 14.78-8.868 24.828-8.868h20.395c0 37.83 9.609 66.057 28.817 84.675 19.205 18.621 46.844 27.936 82.9 27.936 37.835 0 65.621-10.050 83.349-30.152 17.733-20.097 26.603-47.585 26.603-82.458h242.055c9.464 0 17.582 3.251 24.384 9.756 6.796 6.499 10.198 14.772 10.198 24.823l-1.774 577.222h-159.171z" />
<glyph unicode="&#xe903;" glyph-name="11" d="M725.823 434.567v96.274h-98.681l76.538 76.538-68.355 67.873-102.051-102.051-102.051 102.051-68.355-67.873 76.538-76.538h-98.681v-96.274h144.412v-48.137h-144.412v-96.274h144.412v-96.274h96.274v96.274h144.412v96.274h-144.412v48.137h144.412zM918.371 434.567c0.273-178.936-122.742-334.486-296.925-375.455s-353.638 43.437-433.155 203.734c-79.518 160.297-38.145 354.248 99.861 468.144s336.283 117.728 478.587 9.248l-64.985-64.985h192.549v192.549l-59.209-59.209c-175.186 140.999-424.651 141.917-600.87 2.212s-232.229-382.804-134.909-585.533c97.321-202.73 322.037-311.064 541.259-260.938s374.526 245.355 374.073 470.234h-96.275z" />
<glyph unicode="&#xe904;" glyph-name="-2" d="M500.15-20.166l453.437 453.437-267.983-0.061 0.043 453.497h-370.994l-0.079-453.497-267.861 0.061 453.437-453.437z" />
<glyph unicode="&#xe905;" glyph-name="21" d="M500.15 897.58l453.437-453.437-267.983 0.061 0.043-453.497h-370.994l-0.079 453.497-267.861-0.061 453.437 453.437z" />
<glyph unicode="&#xe906;" glyph-name="-" d="M666.8 58.083c5.295 0 5.295-5.295-5.295-15.886-5.295-10.591-15.886-21.182-31.772-37.068-15.886-10.591-31.772-26.477-47.659-37.068-21.182-10.591-37.068-15.886-58.25-15.886s-37.068 5.295-52.954 15.886c-15.886 10.591-31.772 21.182-47.659 37.068-15.886 10.591-21.182 26.477-31.772 37.068-5.295 10.591-10.591 15.886-5.295 15.886h280.657zM931.57 148.105c5.295-5.295 5.295-10.591 5.295-21.182 0-5.295 0-10.591-5.295-15.886l-10.591-10.591c-5.295 0-10.591-5.295-10.591-5.295h-773.13c-10.591 0-15.886 5.295-21.182 10.591-5.295 15.886-5.295 26.477 0 37.068 10.591 21.182 26.477 42.363 42.363 68.84s31.772 52.954 47.659 84.727c15.886 31.772 26.477 63.545 37.068 95.317s15.886 68.84 15.886 105.908c0 37.068 5.295 68.84 15.886 95.317s21.182 52.954 37.068 74.136c15.886 21.182 31.772 37.068 52.954 52.954 26.477 15.886 47.659 26.477 68.84 37.068-10.591 15.886-15.886 37.068-15.886 58.25 0 26.477 10.591 52.954 31.772 74.136 15.886 15.886 42.363 26.477 68.84 26.477s52.954-10.591 74.136-31.772c21.182-21.182 31.772-42.363 31.772-74.136 0-10.591 0-21.182-5.295-31.772l-10.591-21.182c26.477-5.295 47.659-21.182 68.84-31.772 21.182-15.886 42.363-31.772 58.25-52.954s26.477-47.659 37.068-74.136c10.591-26.477 15.886-58.25 15.886-95.317s5.295-68.84 15.886-105.908c10.591-31.772 21.182-68.84 37.068-95.317 15.886-31.772 31.772-58.25 47.659-84.727 10.591-26.477 26.477-52.954 42.363-68.84zM476.165 815.326c0-10.591 5.295-21.182 10.591-26.477 5.295-10.591 15.886-10.591 26.477-10.591s21.182 5.295 26.477 10.591c5.295 5.295 10.591 15.886 10.591 26.477s-5.295 21.182-10.591 31.772c0 5.295-10.591 5.295-21.182 5.295s-21.182-5.295-31.772-10.591c-5.295-5.295-10.591-15.886-10.591-26.477v0z" />
<glyph unicode="&#xe907;" glyph-name="uniE9001" d="M537.919 155.534c4.865 0 9.826 0.289 14.787 0.819 47.733 5.539 88.289 37.811 103.221 82.268 1.102 3.345-0.555 6.975-3.805 8.333-3.28 1.427-7.11 0.239-9.007-2.794-0.193-0.241-19.17-29.863-92.961-39.497-11.078-1.445-21.819-2.216-32.031-2.216-51.731 0-74.803 18.881-74.995 19.074-2.663 2.24-6.539 2.281-9.248 0.096-2.665-2.157-3.286-5.971-1.445-8.863 23.232-35.675 62.912-57.2 105.485-57.222v0zM934.956 597.895c-0.674 0-1.252-0.145-1.878-0.145-43.254 181.106-208.561 316.165-406.767 316.165-203.648 0-372.809-142.573-410.283-331.097-36.414-6.358-64.158-37.329-64.158-74.755v-149.894c0-42.001 34.824-76.055 77.885-76.055 24.276 0 45.662 11.078 59.919 28.081 34.439-88.048 104.521-158.998 193.244-196.471 1.13 2.154 2.452 4.201 3.95 6.117 1.397 1.734 2.938 3.179 4.287 3.179 1.344-0.018 2.653-0.437 3.757-1.204-20.519 14.739-94.695 90.698-110.783 196.712-7.032 46.673 29.141 92.48 71.238 100.042 67.578 12.138 134.818 26.010 202.396 37.955 42.965 7.562 72.346 30.345 90.312 68.3 4.19 8.863 10.259 26.781 13.053 52.646 0.723 3.949 4.174 6.811 8.188 6.791 2.794 0 5.154-1.349 6.743-3.372l1.83 1.156c26.636-37.425 79.475-120.176 87.085-207.502 8.67-99.801 3.853-168.101-75.188-238.039-1.314-1.158-2.068-2.824-2.071-4.576 0-2.167 1.156-3.998 2.89-5.106l1.927-0.867c0.578-0.144 1.060-0.289 1.589-0.289 0.578 0 1.012 0.144 1.493 0.289l3.275 1.782c79.956 42.579 141.224 113.673 169.546 199.121 11.512-16.473 29.43-28.322 50.286-32.464-33.428-147.053-169.161-239.147-337.262-253.115-11.089 25.414-36.336 41.702-64.062 41.327-38.003 0-68.878-29.093-68.878-65.025 0-35.884 30.875-64.977 68.878-64.977 30.73 0 56.403 19.026 65.314 45.228 194.593 15.269 350.653 127.112 383.213 300.848 28.755 11.656 48.985 38.919 48.985 70.805v151.58c0 42.387-35.788 76.777-79.956 76.777v0.048zM863.188 554.305c-50.768 132.94-182.31 227.876-337.070 227.876-154.085 0-285.146-94.166-336.395-226.19-2.505 2.986-5.539 5.587-8.429 8.188 28.996 160.924 172.244 283.268 345.017 283.268 171.955 0 314.72-121.139 344.68-280.956-2.938-3.853-5.684-7.851-7.851-12.186h0.048z" />
<glyph unicode="&#xe908;" glyph-name="-6-2" d="M979.151 407.756c-10.625 14.698-31.166 18.062-46.041 7.437l-58.613-42.145c10.093 37.010 15.406 75.259 15.406 114.039 0 236.755-192.662 429.239-429.239 429.239-236.755 0-429.239-192.485-429.239-429.239s192.662-429.239 429.239-429.239c74.904 0 148.215 19.656 212.849 56.665 3.542 0.708 6.906 1.771 10.093 3.719 18.416 10.979 36.124 23.374 52.592 37.010 13.989 11.51 16.114 32.228 4.427 46.395-11.51 13.989-32.228 16.114-46.395 4.427-12.927-10.625-26.916-20.187-41.259-29.041-2.125-0.708-4.427-1.062-6.552-2.302-55.957-33.468-120.237-50.999-185.933-50.999-200.453 0-363.366 163.090-363.366 363.366s163.090 363.366 363.543 363.366c200.453 0 363.366-162.913 363.366-363.366 0-45.509-8.5-90.133-24.791-131.924l-46.572 111.914c-7.083 16.823-26.385 24.614-43.030 17.708-16.823-6.906-24.791-26.208-17.708-43.030l74.196-177.964c0.708-1.948 1.948-3.364 3.010-5.135 0.354-0.531 0.354-1.062 0.708-1.417 0.177-0.177 0.354-0.177 0.354-0.354 2.833-3.719 6.375-6.729 10.448-9.031 0.708-0.354 1.417-0.708 2.125-1.062 3.364-1.594 7.083-2.833 10.979-3.187 0.708 0 1.24 0.177 1.948 0 0.354 0 0.531-0.177 0.885-0.177 0.708 0 1.417 0.177 2.125 0.354 2.479 0.177 4.958 0.531 7.26 1.062 0.531 0.177 1.062 0.354 1.417 0.531 2.656 0.885 5.135 2.125 7.437 3.719 0.354 0.177 0.708 0.354 1.062 0.531l155.829 112.091c14.698 10.802 18.062 31.343 7.437 46.041zM588.692 629.636c13.104 12.573 13.458 33.468 0.708 46.572-12.573 13.104-33.468 13.458-46.572 0.708l-82.165-79.331-81.988 79.331c-13.104 12.573-33.999 12.396-46.572-0.708s-12.396-33.999 0.708-46.572l92.435-89.248v-19.302h-65.873c-18.239 0-32.937-14.698-32.937-32.937s14.698-32.937 32.937-32.937h65.873v-32.937h-65.873c-18.239 0-32.937-14.698-32.937-32.937s14.698-32.937 32.937-32.937h65.873v-69.238c0-18.239 14.698-32.937 32.937-32.937s32.937 14.698 32.937 32.937v69.238h65.873c18.239 0 32.937 14.698 32.937 32.937s-14.698 32.937-32.937 32.937h-65.873v32.937h65.873c18.239 0 32.937 14.698 32.937 32.937s-14.698 32.937-32.937 32.937h-65.873v14.166l97.571 94.383z" />
<glyph unicode="&#xe909;" glyph-name="1-2" d="M629.963 448.024l-347.949-336.348c-20.508-19.858-20.508-51.997 0-71.792 20.507-19.827 53.779-19.827 74.286 0l385.062 372.252c20.477 19.826 20.477 51.982 0 71.745l-385.062 372.237c-10.285 9.914-23.728 14.87-37.174 14.87s-26.889-4.957-37.112-14.901c-20.508-19.827-20.508-51.919 0-71.746l347.949-336.316z" />
<glyph unicode="&#xe90a;" glyph-name="uniE90A" d="M876.8 14.72h-774.4c-0.005 0-0.012 0-0.018 0-56.554 0-102.4 45.846-102.4 102.4 0 0.675 0.007 1.349 0.020 2.021l-0.002-0.101v366.080c0.468 48.602 23.531 91.722 59.174 119.422l0.346 0.258 168.96 128v46.080c-0.022 0.959-0.035 2.089-0.035 3.221 0 40.881 16.38 77.936 42.936 104.96l-0.021-0.022c26.58 26.876 63.458 43.52 104.224 43.52 0.034 0 0.068 0 0.101 0h501.115c0.157 0.001 0.344 0.001 0.53 0.001 40.429 0 76.966-16.661 103.121-43.491l0.029-0.030c26.896-27.067 43.52-64.368 43.52-105.552 0-0.017 0-0.034 0-0.051v0.003-617.6c0.008-0.571 0.013-1.245 0.013-1.92 0-81.296-65.904-147.2-147.2-147.2-0.004 0-0.009 0-0.013 0v0zM375.68 851.2c-19.24-0.102-36.638-7.906-49.283-20.483l0.003 0.003c-13.051-12.985-21.127-30.958-21.127-50.818 0-0.359 0.003-0.718 0.008-1.076l-0.001 0.054v-83.84l-199.040-151.68c-17.865-13.381-29.332-34.46-29.44-58.223v-366.097c0-0.049-0.001-0.108-0.001-0.166 0-6.675 2.689-12.721 7.042-17.116l-0.002 0.002c4.877-4.54 11.359-7.412 18.508-7.678l0.052-0.002h774.4c1.252-0.082 2.714-0.128 4.186-0.128 18.219 0 34.777 7.115 47.046 18.718l-0.032-0.030c13.022 13.145 21.080 31.228 21.12 51.192v615.048c-0.040 19.972-8.098 38.055-21.126 51.206l0.006-0.006c-12.485 12.924-29.928 20.988-49.255 21.12h-0.025zM304.64 165.12c24.938-0.040 47.53-10.049 64.013-26.253l-0.013 0.013c16.233-15.727 26.308-37.727 26.308-62.080s-10.076-46.353-26.285-62.058l-0.023-0.022c-16.349-16.444-38.986-26.622-64-26.622s-47.651 10.178-63.996 26.618l-0.004 0.004c-15.762 15.945-25.499 37.875-25.499 62.080s9.737 46.135 25.507 62.088l-0.008-0.008c16.504 16.136 39.074 26.127 63.978 26.24h0.022zM304.64-49.92c-0.22-0.001-0.48-0.002-0.74-0.002-35.163 0-67.014 14.179-90.148 37.13l0.008-0.008c-22.625 23.069-36.59 54.704-36.59 89.6s13.964 66.531 36.61 89.621l-0.020-0.021c23.564 22.308 55.46 36.024 90.56 36.024s66.996-13.716 90.621-36.081l-0.061 0.057c22.625-23.069 36.59-54.704 36.59-89.6s-13.964-66.531-36.61-89.621l0.020 0.021c-23.126-22.942-54.976-37.12-90.138-37.12-0.036 0-0.072 0-0.108 0h0.006zM304.64 126.72c-0.241 0.004-0.526 0.007-0.811 0.007-13.921 0-26.528-5.626-35.671-14.728l0.002 0.002c-9.047-8.998-14.664-21.438-14.72-35.189v-0.011c-0.001-0.1-0.001-0.219-0.001-0.338 0-13.666 5.636-26.016 14.71-34.852l0.011-0.010c9.493-8.984 22.342-14.507 36.48-14.507s26.987 5.524 36.505 14.53l-0.025-0.023c8.883 9.101 14.448 21.475 14.719 35.148l0.001 0.052c-0.359 27.649-22.856 49.924-50.556 49.924-0.226 0-0.453-0.001-0.678-0.004h0.034zM720 165.12c0.191 0.001 0.418 0.002 0.644 0.002 24.742 0 47.142-10.028 63.356-26.242v0c16.233-15.727 26.308-37.727 26.308-62.080s-10.076-46.353-26.285-62.058l-0.023-0.022c-16.276-16.602-38.936-26.893-64-26.893s-47.724 10.291-63.986 26.878l-0.014 0.015c-16.233 15.727-26.308 37.727-26.308 62.080s10.076 46.353 26.285 62.058l0.023 0.022c16.214 16.214 38.614 26.242 63.356 26.242 0.226 0 0.453-0.001 0.679-0.003h-0.035zM720-49.92c-0.030 0-0.066 0-0.102 0-35.162 0-67.012 14.178-90.146 37.128l0.008-0.008c-22.625 23.069-36.59 54.704-36.59 89.6s13.964 66.531 36.61 89.621l-0.020-0.021c23.136 23.003 55.028 37.221 90.24 37.221s67.104-14.219 90.246-37.228l-0.006 0.006c22.625-23.069 36.59-54.704 36.59-89.6s-13.964-66.531-36.61-89.621l0.020 0.021c-23.126-22.942-54.976-37.12-90.138-37.12-0.036 0-0.072 0-0.108 0h0.006zM720 126.72c-0.087 0.001-0.19 0.001-0.292 0.001-14.084 0-26.856-5.616-36.198-14.731l0.011 0.010c-9.047-8.998-14.664-21.438-14.72-35.189v-0.011c-0.001-0.1-0.001-0.219-0.001-0.338 0-13.666 5.636-26.016 14.71-34.852l0.011-0.010c9.493-8.984 22.342-14.507 36.48-14.507s26.987 5.524 36.505 14.53l-0.025-0.023c9.085 8.846 14.721 21.196 14.721 34.862 0 0.119 0 0.238-0.001 0.356v-0.018c-0.056 13.762-5.673 26.202-14.718 35.198l-0.002 0.002c-9.141 9.1-21.748 14.727-35.669 14.727-0.285 0-0.57-0.002-0.854-0.007l0.043 0.001zM389.12 626.56v0c-23.133-2.314-41.045-21.679-41.045-45.227 0-0.976 0.031-1.944 0.091-2.904l-0.007 0.131v-128c-0.080-1.004-0.126-2.174-0.126-3.354 0-23.435 17.994-42.667 40.919-44.634l0.166-0.012c23.092 1.979 41.086 21.211 41.086 44.646 0 1.18-0.046 2.35-0.135 3.508l0.010-0.153v128c0.054 0.829 0.085 1.797 0.085 2.773 0 23.548-17.912 42.912-40.854 45.211l-0.19 0.015z" />
<glyph unicode="&#xe90b;" glyph-name="1" d="M876.8 12.16h-774.4c-28.691 0.071-54.562 12.080-72.922 31.32l-0.038 0.040c-18.204 18.474-29.446 43.853-29.446 71.857 0 0.388 0.002 0.775 0.006 1.162l-0.001-0.059v366.080c0.669 48.557 23.674 91.607 59.183 119.426l0.337 0.254 168.96 128v46.080c-0.015 0.806-0.024 1.757-0.024 2.71 0 41.041 16.369 78.259 42.934 105.481l-0.030-0.030c26.481 26.872 63.275 43.52 103.957 43.52 0.128 0 0.256 0 0.383 0h501.1c0.157 0.001 0.344 0.001 0.53 0.001 40.429 0 76.966-16.661 103.121-43.491l0.029-0.030c26.889-26.873 43.521-64.006 43.521-105.024 0-0.203 0-0.405-0.001-0.608v0.031-617.6c0.014-0.762 0.022-1.661 0.022-2.561 0-80.943-65.617-146.56-146.56-146.56-0.233 0-0.466 0.001-0.698 0.002h0.036zM375.68 848.64c-19.215-0.246-36.569-8.016-49.292-20.491l0.012 0.011c-13.056-13.363-21.113-31.66-21.12-51.839v-83.841l-199.040-151.68c-17.933-13.188-29.441-34.206-29.441-57.913 0-0.115 0-0.23 0.001-0.345v0.018-366.080c0.026-6.723 2.706-12.814 7.046-17.286l-0.006 0.006c4.877-4.54 11.359-7.412 18.508-7.678l0.052-0.002h774.4c1.323-0.092 2.868-0.144 4.424-0.144 18.147 0 34.629 7.125 46.803 18.73l-0.027-0.026c13.022 13.145 21.080 31.228 21.12 51.192v615.048c-0.040 19.972-8.098 38.055-21.126 51.206l0.006-0.006c-12.446 12.983-29.914 21.067-49.27 21.12h-0.010zM304.64 162.56c24.914-0.185 47.463-10.159 64.022-26.261l-0.022 0.021c16.233-15.727 26.308-37.727 26.308-62.080s-10.076-46.353-26.285-62.058l-0.023-0.022c-16.224-16.712-38.901-27.082-64-27.082-49.243 0-89.162 39.919-89.162 89.162 0 24.144 9.597 46.047 25.183 62.102l-0.021-0.022c16.537 16.081 39.086 26.055 63.964 26.24h0.036zM304.64-52.48c-0.22-0.001-0.48-0.002-0.74-0.002-35.163 0-67.014 14.179-90.148 37.13l0.008-0.008c-22.625 23.069-36.59 54.704-36.59 89.6s13.964 66.531 36.61 89.621l-0.020-0.021c23.564 22.308 55.46 36.024 90.56 36.024s66.996-13.716 90.621-36.081l-0.061 0.057c21.897-22.928 35.374-54.061 35.374-88.342 0-69.853-55.955-126.638-125.488-127.976l-0.125-0.002zM304.64 124.16c-0.087 0.001-0.19 0.001-0.292 0.001-14.084 0-26.856-5.616-36.198-14.731l0.011 0.010c-9.085-8.846-14.721-21.196-14.721-34.862 0-0.119 0-0.238 0.001-0.356v0.018c-0.002-0.18-0.004-0.393-0.004-0.607 0-13.582 5.641-25.847 14.709-34.579l0.015-0.014c9.493-8.984 22.342-14.507 36.48-14.507s26.987 5.524 36.505 14.53l-0.025-0.023c8.883 9.101 14.448 21.475 14.719 35.148l0.001 0.052c-0.897 13.113-6.603 24.743-15.349 33.27l-0.011 0.010c-9.346 8.724-21.933 14.080-35.771 14.080-0.024 0-0.048 0-0.072 0h0.004zM720 162.56c0.113 0.001 0.247 0.001 0.381 0.001 24.825 0 47.308-10.024 63.623-26.245l-0.004 0.004c16.233-15.727 26.308-37.727 26.308-62.080s-10.076-46.353-26.285-62.058l-0.023-0.022c-16.276-16.602-38.936-26.893-64-26.893s-47.724 10.291-63.986 26.878l-0.014 0.015c-16.233 15.727-26.308 37.727-26.308 62.080s10.076 46.353 26.285 62.058l0.023 0.022c16.537 16.081 39.086 26.055 63.964 26.24h0.036zM720-52.48c-69.658 1.34-125.614 58.124-125.614 127.978 0 34.281 13.476 65.415 35.42 88.392l-0.047-0.049c23.355 24.454 56.215 39.658 92.626 39.658 70.692 0 128-57.308 128-128s-57.308-128-128-128c-0.839 0-1.676 0.008-2.512 0.024l0.125-0.002zM720 124.16c-0.087 0.001-0.19 0.001-0.292 0.001-14.084 0-26.856-5.616-36.198-14.731l0.011 0.010c-9.085-8.846-14.721-21.196-14.721-34.862 0-0.119 0-0.238 0.001-0.356v0.018c-0.002-0.18-0.004-0.393-0.004-0.607 0-13.582 5.641-25.847 14.709-34.579l0.015-0.014c9.493-8.984 22.342-14.507 36.48-14.507s26.987 5.524 36.505 14.53l-0.025-0.023c9.082 8.746 14.724 21.011 14.724 34.593 0 0.213-0.001 0.426-0.004 0.639v-0.032c0.001 0.1 0.001 0.219 0.001 0.338 0 13.666-5.636 26.016-14.71 34.852l-0.011 0.010c-9.332 9.105-22.104 14.721-36.188 14.721-0.103 0-0.205 0-0.308-0.001h0.016zM389.12 624v0c-23.175-2.639-41.013-22.137-41.013-45.801 0-0.774 0.019-1.543 0.057-2.307l-0.004 0.108v-128c-0.080-1.004-0.126-2.174-0.126-3.354 0-23.435 17.994-42.667 40.919-44.634l0.166-0.012c23.092 1.979 41.086 21.211 41.086 44.646 0 1.18-0.046 2.35-0.135 3.508l0.010-0.153v128c0.033 0.657 0.053 1.426 0.053 2.199 0 23.664-17.838 43.162-40.801 45.781l-0.212 0.020z" />
<glyph unicode="&#xe90c;" glyph-name="2" horiz-adv-x="1034" d="M250.67-63.354c-41.535 0.073-79.394 15.75-108.041 41.48l0.15-0.132c-26.21 26.456-43.228 62.058-45.845 101.597l-0.025 0.48v382.466l47.162-10.337c13.512-2.129 29.366-3.526 45.48-3.87l0.39-0.007h69.128l217.721-44.578c13.205-2.936 28.372-4.618 43.932-4.618s30.727 1.682 45.329 4.875l-1.397-0.256 212.553 44.578h58.791c21.036 0.833 40.842 2.916 60.241 6.198l-2.742-0.383 46.516 10.337v-371.483c-0.089-41.139-16.32-78.469-42.693-106.009l0.053 0.056c-26.221-27.542-62.076-45.702-102.141-49.061l-0.582-0.039zM171.205 370.15v-287.495c2.284-18.863 11.275-35.287 24.478-47.099l0.072-0.063c13.874-13.203 32.689-21.325 53.402-21.325 0.305 0 0.609 0.002 0.913 0.005h541.996c39.756 4.042 70.584 37.11 71.066 77.478v278.499h-78.819l-203.508-41.994c-17.963-3.992-38.594-6.28-59.76-6.28s-41.797 2.287-61.661 6.628l1.9-0.348-209.322 43.286h-60.729zM520.076 326.218c-0.968-0.019-2.109-0.030-3.253-0.030-14.196 0-28.005 1.659-41.244 4.794l1.211-0.242-215.783 44.578h-64.606c-2.189-0.083-4.759-0.13-7.34-0.13-60.777 0-115.447 26.144-153.379 67.8l-0.149 0.166c-21.925 25.894-35.255 59.674-35.255 96.568 0 11.57 1.311 22.834 3.792 33.651l-0.194-1.007 56.853 253.254c9.648 40.078 32.737 73.68 64.131 96.579l0.475 0.33c33.221 23.057 74.398 36.835 118.792 36.835 0.71 0 1.42-0.004 2.129-0.011l-0.108 0.001h541.396c0.836 0.012 1.823 0.019 2.811 0.019 44.135 0 85.050-13.787 118.673-37.289l-0.671 0.444c31.996-23.111 55.13-56.764 64.382-95.79l0.224-1.119 56.853-252.608c1.945-9.213 3.058-19.799 3.058-30.645 0-37.556-13.353-71.994-35.569-98.825l0.208 0.259c-36.362-42.435-90.012-69.154-149.903-69.154-1.129 0-2.257 0.010-3.381 0.028l0.169-0.002h-64.606l-215.137-43.932c-13.393-2.856-28.787-4.501-44.562-4.522h-0.016zM267.468 455.43l225.474-47.162c8.341-2.139 17.918-3.367 27.78-3.367s19.439 1.228 28.584 3.539l-0.803-0.172 224.182 45.87 73.65-5.815c36.387 0.317 68.808 17.022 90.286 43.083l0.162 0.202c11.295 13.461 18.157 30.975 18.157 50.091 0 5.133-0.495 10.151-1.439 15.008l0.080-0.493-55.561 253.254c-4.976 21.151-17.536 38.767-34.589 50.204l-0.298 0.188c-20.434 14.17-45.757 22.637-73.058 22.637-0.89 0-1.778-0.009-2.663-0.027l0.132 0.002h-541.396c-0.565 0.009-1.232 0.014-1.901 0.014-27.294 0-52.611-8.463-73.471-22.907l0.429 0.281c-17.351-11.626-29.911-29.242-34.775-49.831l-0.112-0.561-56.853-253.9c-1.373-5.245-2.161-11.266-2.161-17.471 0-18.083 6.693-34.603 17.737-47.217l-0.071 0.083c23.75-26.332 57.988-42.811 96.076-42.811 2.338 0 4.662 0.062 6.97 0.185l-0.322-0.014zM349.517 713.206v0c15.404-2.962 26.883-16.333 26.883-32.386 0-1.795-0.144-3.557-0.42-5.274l0.025 0.189-15.505-85.926c-2.297-15.057-15.154-26.458-30.675-26.458-2.177 0-4.301 0.224-6.352 0.651l0.201-0.035c-15.409 2.309-27.091 15.453-27.091 31.326 0 2.175 0.219 4.298 0.637 6.349l-0.035-0.204 14.859 85.279c2.962 15.404 16.333 26.883 32.386 26.883 1.795 0 3.557-0.144 5.274-0.42l-0.189 0.025zM684.174 713.206v0c-15.404-2.962-26.883-16.333-26.883-32.386 0-1.795 0.144-3.557 0.42-5.274l-0.025 0.189 15.505-85.926c2.297-15.057 15.154-26.458 30.675-26.458 2.177 0 4.301 0.224 6.352 0.651l-0.201-0.035c15.409 2.309 27.091 15.453 27.091 31.326 0 2.175-0.219 4.298-0.637 6.349l0.035-0.204-14.859 85.279c-2.962 15.404-16.333 26.883-32.386 26.883-1.795 0-3.557-0.144-5.274-0.42l0.189 0.025zM516.845 710.622v0c-17.84 0-32.303-14.462-32.303-32.303v0-87.218c0-17.84 14.462-32.303 32.303-32.303v0 0c17.84 0 32.303 14.462 32.303 32.303v0 87.218c0 17.84-14.462 32.303-32.303 32.303v0z" />
<glyph unicode="&#xe90d;" glyph-name="3" horiz-adv-x="1034" d="M250.987-64.647c-41.541 0.392-79.358 16.019-108.203 41.552l0.175-0.152c-26.102 26.578-43.1 62.173-45.899 101.691l-0.029 0.515v382.949l47.222-10.35c15.525 0 30.403-3.234 45.928-3.881h69.215l217.996-44.634c13.224-2.776 28.42-4.365 43.987-4.365s30.763 1.589 45.434 4.614l-1.447-0.249 212.821 44.634h58.865c19.406 0 38.812 3.234 57.572 5.822l46.575 10.35v-371.952c0-0.134 0.001-0.293 0.001-0.452 0-41.472-16.261-79.146-42.756-106.994l0.061 0.065c-26.255-27.576-62.155-45.76-102.27-49.123l-0.583-0.039zM171.421 369.405v-287.858c2.286-18.887 11.289-35.331 24.509-47.158l0.072-0.063c14.255-13.144 33.341-21.239 54.315-21.347h542.748c39.669 4.332 70.373 37.274 71.155 77.546l0.001 0.078v278.802h-78.919l-203.765-42.047c-17.99-3.701-38.665-5.82-59.836-5.82s-41.846 2.119-61.826 6.156l1.991-0.336-209.587 45.281h-60.806zM520.733 325.418c-0.485-0.004-1.058-0.007-1.632-0.007-14.78 0-29.173 1.652-43.007 4.782l1.299-0.247-216.056 42.694h-64.687c-1.177-0.024-2.565-0.037-3.956-0.037-62.264 0-118.245 26.902-156.953 69.716l-0.163 0.183c-21.983 25.854-35.354 59.625-35.354 96.518 0 11.647 1.333 22.983 3.854 33.864l-0.197-1.008 56.925 253.574c9.488 40.195 32.651 73.891 64.204 96.698l0.483 0.333c32.926 23.087 73.827 36.894 117.953 36.894 1.059 0 2.117-0.008 3.173-0.024l-0.16 0.002h542.080c0.896 0.014 1.953 0.022 3.013 0.022 44.126 0 85.027-13.807 118.619-37.336l-0.666 0.442c32.21-22.977 55.437-56.745 64.475-95.938l0.212-1.093 56.925-252.927c1.887-9.121 2.968-19.602 2.968-30.336 0-37.701-13.328-72.29-35.528-99.311l0.217 0.272c-36.666-43.248-91.035-70.515-151.772-70.515-0.54 0-1.080 0.002-1.62 0.006l0.083-0.001h-64.687l-215.409-43.987c-13.304-1.932-28.77-3.104-44.484-3.233l-0.15-0.001zM267.805 454.792l225.759-47.222c8.361-1.848 17.965-2.907 27.816-2.907s19.455 1.059 28.703 3.068l-0.888-0.162 224.465 45.928 73.744-5.822c36.392 0.506 68.79 17.18 90.405 43.147l0.157 0.194c11.31 13.478 18.18 31.014 18.18 50.154 0 5.14-0.495 10.164-1.441 15.027l0.080-0.493-55.631 253.574c-4.917 21.204-17.512 38.862-34.63 50.268l-0.301 0.189c-20.058 14.198-45.027 22.695-71.98 22.695-1.303 0-2.6-0.020-3.893-0.059l0.189 0.005h-542.080c-0.976 0.027-2.125 0.043-3.278 0.043-26.879 0-51.774-8.494-72.147-22.944l0.387 0.261c-17.419-11.594-30.014-29.252-34.822-49.901l-0.109-0.555-56.925-254.221c-1.374-5.251-2.164-11.28-2.164-17.493 0-18.106 6.702-34.647 17.76-47.277l-0.071 0.083c23.78-26.365 58.062-42.865 96.197-42.865 2.341 0 4.668 0.062 6.978 0.185l-0.323-0.014zM349.958 712.895v0c15.424-2.966 26.917-16.354 26.917-32.427 0-1.798-0.144-3.561-0.42-5.281l0.025 0.189-15.525-86.034c-1.378-8.616-6.133-15.918-12.839-20.634l-0.099-0.066c-5.337-3.476-11.867-5.542-18.881-5.542-1.783 0-3.535 0.134-5.246 0.391l0.193-0.024c-8.856 1.663-16.334 6.602-21.278 13.484l-0.069 0.1c-3.673 4.82-5.884 10.926-5.884 17.548 0 2.264 0.258 4.467 0.747 6.582l-0.038-0.196 14.878 85.387c2.648 15.424 15.921 27.013 31.901 27.013 1.985 0 3.928-0.179 5.815-0.521l-0.197 0.030zM685.039 712.895v0c-15.424-2.966-26.917-16.354-26.917-32.427 0-1.798 0.144-3.561 0.42-5.281l-0.025 0.189 15.525-86.034c1.378-8.616 6.133-15.918 12.839-20.634l0.099-0.066c5.337-3.476 11.867-5.542 18.881-5.542 1.783 0 3.535 0.134 5.246 0.391l-0.193-0.024c8.856 1.663 16.334 6.602 21.278 13.484l0.069 0.1c3.673 4.82 5.884 10.926 5.884 17.548 0 2.264-0.258 4.467-0.747 6.582l0.038-0.196-14.878 85.387c-2.648 15.424-15.921 27.013-31.901 27.013-1.985 0-3.928-0.179-5.815-0.521l0.197 0.030zM517.498 710.307v0c-17.863 0-32.344-14.481-32.344-32.344v0-87.328c0-17.863 14.481-32.344 32.344-32.344v0 0c17.863 0 32.344 14.481 32.344 32.344v0 87.328c0 17.863-14.481 32.344-32.344 32.344v0z" />
<glyph unicode="&#xe90e;" glyph-name="uniE90E" d="M830.2 186.438h-81.92v-81.92c0-45.056-36.864-81.92-81.92-81.92h-491.52c-45.056 0-81.92 36.864-81.92 81.92v491.52c0 45.056 36.864 81.92 81.92 81.92h81.92v81.92c0 45.056 36.864 81.92 81.92 81.92h491.52c45.056 0 81.92-36.864 81.92-81.92v-491.52c0-45.056-36.864-81.92-81.92-81.92zM215.8 596.038c-24.576 0-40.96-16.384-40.96-40.96v-409.6c0-24.576 16.384-40.96 40.96-40.96h409.6c24.576 0 40.96 16.384 40.96 40.96v409.6c0 24.576-16.384 40.96-40.96 40.96h-409.6zM830.2 718.918c0 24.576-16.384 40.96-40.96 40.96h-409.6c-24.576 0-40.96-16.384-40.96-40.96v-40.96h327.68c45.056 0 81.92-36.864 81.92-81.92v-327.68h40.96c24.576 0 40.96 16.384 40.96 40.96v409.6z" />
<glyph unicode="&#xe90f;" glyph-name="dingd" horiz-adv-x="1080" d="M946.373-63.325h-810.020c-74.56 0-135.003 60.443-135.003 135.003v0 693.917c0.349 36.634 15.236 69.724 39.16 93.836l-0.009-0.009c24.26 24.068 57.623 38.991 94.472 39.151h810.051c36.88-0.16 70.243-15.083 94.511-39.16l-0.009 0.009c24.411-23.929 39.767-57.016 40.499-93.691l0.002-0.137v-696.617c0-74.56-60.443-135.003-135.003-135.003v0zM136.353 814.196c-14.451-0.428-27.461-6.265-37.146-15.544l0.020 0.019c-9.508-9.258-15.434-22.154-15.525-36.434v-693.259c0-0.049 0-0.107 0-0.166 0-14.051 5.963-26.71 15.496-35.583l0.030-0.027c9.49-9.542 22.611-15.466 37.115-15.525h810.031c14.515 0.059 27.636 5.983 37.124 15.523l0.002 0.002c9.563 8.901 15.526 21.559 15.526 35.61 0 0.058 0 0.116 0 0.175v-0.009 696.617c-0.092 14.297-6.018 27.193-15.514 36.44l-0.011 0.011c-9.665 9.261-22.675 15.097-37.043 15.523l-0.082 0.002zM669.616 960h-259.206c-77.627 0-140.403-39.151-140.403-86.402s62.777-87.752 140.403-87.752h259.206c77.627 0 140.403 38.476 140.403 86.402s-62.777 87.752-140.403 87.752zM296.766 482.075l9.207 9.874c12.712 13.632 34.069 14.378 47.702 1.666l159.951-149.157c13.632-12.712 14.378-34.069 1.666-47.702l-9.207-9.874c-12.712-13.632-34.069-14.378-47.702-1.666l-159.951 149.157c-13.632 12.712-14.378 34.069-1.666 47.702zM454.015 338.741l277.446 258.722c13.632 12.712 34.989 11.967 47.702-1.666l9.207-9.874c12.712-13.632 11.967-34.989-1.666-47.702l-277.446-258.722c-13.632-12.712-34.989-11.967-47.702 1.666l-9.207 9.874c-12.712 13.632-11.967 34.989 1.666 47.702z" />
<glyph unicode="&#xe910;" glyph-name="dingd1" horiz-adv-x="1077" d="M943.832-61.305h-808.421c-74.413 0-134.737 60.324-134.737 134.737v0 692.547c0 74.413 60.324 134.737 134.737 134.737v0h808.421c74.413 0 134.737-60.324 134.737-134.737v0-695.242c0-74.413-60.324-134.737-134.737-134.737v0zM135.411 814.484c-14.366-0.748-27.261-6.501-37.096-15.534l0.043 0.039c-9.37-9.316-15.246-22.138-15.494-36.332l-0.001-0.047v-691.874c0-0.049 0-0.107 0-0.165 0-14.023 5.951-26.657 15.466-35.513l0.029-0.027c9.472-9.523 22.566-15.436 37.041-15.495h808.432c0.19-0.003 0.414-0.004 0.639-0.004 14.297 0 27.207 5.938 36.399 15.483l0.015 0.016c9.544 8.883 15.495 21.516 15.495 35.54 0 0.058 0 0.116 0 0.174v-0.009 695.242c0 0.076 0.001 0.166 0.001 0.256 0 14.205-5.941 27.023-15.475 36.104l-0.020 0.019c-9.707 9.139-22.653 14.934-36.944 15.491l-0.108 0.003zM666.947 960h-258.695c-77.474 0-138.105-39.074-138.105-86.232s62.653-87.579 140.126-87.579h258.695c72.758 0 140.126 38.4 140.126 86.232s-67.368 87.579-142.147 87.579zM294.667 483.591l9.189 9.854c12.687 13.606 34.002 14.35 47.608 1.662l159.635-148.862c13.606-12.687 14.35-34.002 1.662-47.608l-9.189-9.854c-12.687-13.606-34.002-14.35-47.608-1.662l-159.635 148.862c-13.606 12.687-14.35 34.002-1.662 47.608zM452.162 339.713l276.898 258.212c13.606 12.687 34.92 11.943 47.608-1.662l9.189-9.854c12.687-13.606 11.943-34.92-1.662-47.608l-276.898-258.212c-13.606-12.687-34.92-11.943-47.608 1.662l-9.189 9.854c-12.687 13.606-11.943 34.92 1.662 47.608z" />
<glyph unicode="&#xe911;" horiz-adv-x="8448" d="M523.115 720.491c-33.918-5.052-68.557-11.546-103.918-19.485l-50.877 107.165c38.248 12.99 90.207 23.815 155.877 32.474 0.722 29.588 1.082 60.258 1.082 92.011h176.444c0-27.423 0-53.402 0-77.939 77.939 4.33 134.227 3.247 168.867-3.247 41.134-7.938 65.31-27.242 72.526-57.913s9.021-60.078 5.412-88.222c-4.33-40.413-9.201-75.413-14.613-105.001s-11.727-58.815-18.943-87.681h60.619l-25.98-121.238h-268.455c-15.155-80.825-35.361-144.691-60.619-191.599-31.031-62.784-76.856-111.856-137.475-147.217l-117.99 51.959c44.021 51.237 77.578 105.001 100.671 161.289 14.433 38.969 26.34 80.825 35.722 125.568h-125.568l-27.062 121.238h167.784c2.165 37.526 3.969 94.176 5.412 169.949 0.722 12.99 1.082 25.619 1.082 37.887zM701.724 741.058c-0.722-104.64-2.887-180.774-6.495-228.403h200.259l-122.32 20.567c7.217 24.536 12.629 49.433 16.237 74.691s6.856 53.763 9.742 85.516c1.443 17.32-4.691 29.949-18.402 37.887s-30.309 11.546-49.794 10.825c-10.103-0.722-19.845-1.082-29.227-1.082zM332.599 601.418v-536.91h-172.114v862.736h172.114v-325.826zM119.35 94.817h-113.66v766.57l113.66 34.465v-801.035zM953.942 173.838c0-29.588-11.186-55.206-33.557-76.856s-49.614-32.474-81.727-32.474c-32.114 0-59.536 10.825-82.268 32.474s-34.098 47.268-34.098 76.856c0.722 26.701 12.268 50.335 34.639 70.902s49.614 30.67 81.727 30.309c32.114-0.361 59.356-10.644 81.727-30.851s33.557-43.66 33.557-70.361z" />
<glyph unicode="&#xe912;" glyph-name="-8" horiz-adv-x="1000" d="M744.795 720.468l242.526-234.292c3.567-3.235 6.372-7.243 8.16-11.764l0.074-0.213c2.538-4.858 4.027-10.61 4.027-16.71 0-10.139-4.114-19.317-10.764-25.956v0l-244.772-254.503c-6.864-6.661-16.239-10.767-26.573-10.767s-19.709 4.106-26.583 10.776l0.010-0.009c-6.838 6.784-11.071 16.184-11.071 26.573s4.233 19.79 11.068 26.571l0.002 0.002 173.661 180.398h-604.070c-20.503 0.411-37.016 16.924-37.426 37.388l-0.001 0.039c0 20.67 16.757 37.427 37.427 37.427v0h619.789l-187.135 181.146c-8.336 6.915-13.606 17.276-13.606 28.868 0 20.67 16.757 37.427 37.427 37.427 11.032 0 20.949-4.773 27.799-12.367l0.029-0.033zM486.55 960c20.67 0 37.427-16.757 37.427-37.427v0c-0.411-20.503-16.924-37.016-37.388-37.426l-0.039-0.001h-411.696v-873.544h411.696c20.503-0.411 37.016-16.924 37.426-37.388l0.001-0.039c0-20.67-16.757-37.427-37.427-37.427v0h-449.123c-20.67 0-37.427 16.757-37.427 37.427v0c-0.501 2.25-0.788 4.834-0.788 7.485s0.287 5.235 0.832 7.723l-0.044-0.238c-0.574 2.134-0.903 4.584-0.903 7.111s0.33 4.977 0.948 7.31l-0.045-0.198v919.205c0 20.67 16.757 37.427 37.427 37.427v0z" />
<glyph unicode="&#xe913;" glyph-name="-3" d="M636.682 58.083c5.295 0 5.295-5.295-5.295-15.886-5.295-10.591-15.886-21.182-31.772-37.068-15.886-10.591-31.772-26.477-47.659-37.068-21.182-10.591-37.068-15.886-58.25-15.886s-37.068 5.295-52.954 15.886c-15.886 10.591-31.772 21.182-47.659 37.068-15.886 10.591-21.182 26.477-31.772 37.068-5.295 10.591-10.591 15.886-5.295 15.886h280.657zM901.453 148.105c5.295-5.295 5.295-10.591 5.295-21.182 0-5.295 0-10.591-5.295-15.886l-10.591-10.591c-5.295 0-10.591-5.295-10.591-5.295h-773.13c-10.591 0-15.886 5.295-21.182 10.591-5.295 15.886-5.295 26.477 0 37.068 10.591 21.182 26.477 42.363 42.363 68.84s31.772 52.954 47.659 84.727c15.886 31.772 26.477 63.545 37.068 95.317s15.886 68.84 15.886 105.908c0 37.068 5.295 68.84 15.886 95.317s21.182 52.954 37.068 74.136c15.886 21.182 31.772 37.068 52.954 52.954 26.477 15.886 47.659 26.477 68.84 37.068-10.591 15.886-15.886 37.068-15.886 58.25 0 26.477 10.591 52.954 31.772 74.136 15.886 15.886 42.363 26.477 68.84 26.477s52.954-10.591 74.136-31.772c21.182-21.182 31.772-42.363 31.772-74.136 0-10.591 0-21.182-5.295-31.772l-10.591-21.182c26.477-5.295 47.659-21.182 68.84-31.772 21.182-15.886 42.363-31.772 58.25-52.954s26.477-47.659 37.068-74.136c10.591-26.477 15.886-58.25 15.886-95.317s5.295-68.84 15.886-105.908c10.591-31.772 21.182-68.84 37.068-95.317 15.886-31.772 31.772-58.25 47.659-84.727 10.591-26.477 26.477-52.954 42.363-68.84zM446.048 815.326c0-10.591 5.295-21.182 10.591-26.477 5.295-10.591 15.886-10.591 26.477-10.591s21.182 5.295 26.477 10.591c5.295 5.295 10.591 15.886 10.591 26.477s-5.295 21.182-10.591 31.772c0 5.295-10.591 5.295-21.182 5.295s-21.182-5.295-31.772-10.591c-5.295-5.295-10.591-15.886-10.591-26.477v0z" />
<glyph unicode="&#xe914;" glyph-name="1-" d="M882.381 213.581h-123.293c-14.747 0-26.693 11.947-26.693 26.693l-0.28 314.347c-1.68 109.947-91 193.853-201.133 194.413-110.133-0.56-199.453-84.467-201.227-194.413l-0.187-272.72c0 0 34.44-118.907 116.48-105.093 6.253 20.813 28.28 28.653 42.467 28.653h86.427c29.493 0 53.387-23.893 53.387-53.387v-16.707c0-29.493-23.893-53.387-53.387-53.387h-79.52c-22.587 0-41.813 14.187-49.653 34.067-1.307 0.747-11.947-0.187-22.4 2.053-80.92 28.933-116.387 95.853-116.387 95.853-1.4-0.28-2.8-0.467-4.2-0.467h-123.2c-14.747 0-26.693 11.947-26.693 26.693v273.653c0 14.747 11.947 26.693 26.693 26.693h88.107c0 22.587-0.093 14.187-0.093 14.187 3.173 255.64 259 256.48 259 256.48 2.053 0.093 6.813 0.093 8.773 0 0 0 255.827-0.933 259-256.48 0 0 0 8.493-0.093-14.187h88.107c14.747 0 26.693-11.947 26.693-26.693v-273.56c0-14.747-11.947-26.693-26.693-26.693v0zM273.195 462.315c0 9.053-4.853 16.427-10.827 16.427h-45.547c-5.973 0-10.827-7.373-10.827-16.427v-168.467c0-9.147 4.853-16.427 10.827-16.427h45.547c5.973 0 10.827 7.373 10.827 16.427v168.467zM855.968 462.315c0 9.053-4.853 16.427-10.827 16.427h-45.453c-5.973 0-10.92-7.373-10.92-16.427v-168.467c0-9.147 4.947-16.427 10.92-16.427h45.453c5.973 0 10.827 7.373 10.827 16.427v168.467z" />
<glyph unicode="&#xe915;" glyph-name="-4" d="M499.845 726.635l45.547-11.2c94.827-23.147 164.267-109.76 164.267-206.080v-237.44l17.173-17.173 23.147-23.893h-500.267l23.147 23.893 17.173 17.173v237.44c0 96.32 68.693 183.68 164.267 206.080l45.547 11.2zM499.845 864.768c-34.347 0-59.733-28.373-59.733-63.467v-28.373c-118.72-27.627-209.813-135.147-209.813-263.573v-213.547l-81.387-83.627v-41.813h701.867v41.813l-81.387 83.627v213.547c0 128.427-91.093 235.947-209.813 264.32v26.88c0 29.867-16.427 56.747-44.8 62.72-5.227 1.493-10.453 1.493-14.933 1.493zM581.979 110.635h-164.267c0-46.293 35.84-82.133 82.133-82.133s82.133 35.84 82.133 82.133z" />
<glyph unicode="&#xe916;" glyph-name="uniE916" d="M958.92 596.155l-53.667 48.72c-28.933 26.227-66.36 40.693-105.373 40.693h-147.933v75.133c0 57.867-47.133 105-105 105h-387.333c-57.867 0-105-47.133-105-105v-672.467h119.467c0-65.893 53.573-119.467 119.467-119.467s119.467 53.573 119.467 119.467h238.933c0-65.893 53.573-119.467 119.467-119.467s119.467 53.573 119.467 119.467h119.467v391.813c0 44.147-18.76 86.427-51.427 116.107zM918.787 551.915c20.253-18.387 31.827-44.52 31.827-71.867v-93.147h-119.467v233.8c12.413-4.2 23.987-11.013 33.973-20.067l53.667-48.72zM293.547 28.501c-32.947 0-59.733 26.787-59.733 59.733s26.787 59.733 59.733 59.733c32.947 0 59.733-26.787 59.733-59.733s-26.787-59.733-59.733-59.733zM592.213 147.968h-195.253c-20.72 35.653-59.267 59.733-103.413 59.733s-82.787-24.080-103.413-59.733h-75.787v612.733c0 24.92 20.347 45.267 45.267 45.267h387.333c24.92 0 45.267-20.347 45.267-45.267v-612.733zM771.413 28.501c-32.947 0-59.733 26.787-59.733 59.733s26.787 59.733 59.733 59.733c32.947 0 59.733-26.787 59.733-59.733s-26.787-59.733-59.733-59.733zM874.827 147.968c-20.72 35.653-59.267 59.733-103.413 59.733s-82.787-24.080-103.413-59.733h-16.053v477.867h119.467v-298.667h179.2v-179.2h-75.787z" />
<glyph unicode="&#xe917;" glyph-name="4" d="M946.702 703.866l-190.335 159.683-53.228-63.376 190.335-159.683 53.228 63.376zM361.82 800.38l-53.227 63.376-190.335-159.683 53.228-63.376c0 0 190.334 159.683 190.334 159.683zM553.191 609.424h-62.133v-248.532l196.548-118.261 31.273 51.156-165.688 98.17v217.466zM532.273 775.113c-206.075 0-372.592-166.931-372.592-372.8s166.517-372.8 372.592-372.8c206.075 0 373.007 166.931 373.007 372.8s-166.932 372.8-373.007 372.8zM532.48 112.358c-160.096 0-289.955 129.858-289.955 289.955s129.858 289.955 289.955 289.955c160.097 0 289.955-129.858 289.955-289.955s-129.652-289.955-289.955-289.955z" />
<glyph unicode="&#xe918;" glyph-name="5" d="M957.799 373.827c-9.633 13.325-28.256 16.376-41.742 6.743l-53.141-38.21c9.151 33.554 13.968 68.232 13.968 103.392 0 214.651-174.675 389.165-389.165 389.165-214.651 0-389.165-174.514-389.165-389.165s174.675-389.165 389.165-389.165c67.911 0 134.377 17.821 192.977 51.375 3.211 0.642 6.261 1.605 9.151 3.371 16.697 9.954 32.751 21.192 47.682 33.554 12.683 10.436 14.61 29.219 4.014 42.063-10.436 12.683-29.219 14.61-42.063 4.014-11.72-9.633-24.403-18.302-37.407-26.33-1.927-0.642-4.014-0.963-5.94-2.087-50.733-30.343-109.011-46.237-168.574-46.237-181.739 0-329.441 147.863-329.441 329.441s147.863 329.441 329.602 329.441c181.739 0 329.441-147.703 329.441-329.441 0-41.26-7.706-81.718-22.477-119.607l-42.224 101.465c-6.422 15.252-23.921 22.316-39.013 16.055-15.252-6.261-22.477-23.761-16.055-39.013l67.269-161.349c0.642-1.766 1.766-3.050 2.729-4.656 0.321-0.482 0.321-0.963 0.642-1.284 0.161-0.161 0.321-0.161 0.321-0.321 2.569-3.371 5.78-6.101 9.472-8.188 0.642-0.321 1.284-0.642 1.927-0.963 3.050-1.445 6.422-2.569 9.954-2.89 0.642 0 1.124 0.161 1.766 0 0.321 0 0.482-0.161 0.803-0.161 0.642 0 1.284 0.161 1.927 0.321 2.248 0.161 4.495 0.482 6.582 0.963 0.482 0.161 0.963 0.321 1.284 0.482 2.408 0.803 4.656 1.927 6.743 3.371 0.321 0.161 0.642 0.321 0.963 0.482l141.281 101.626c13.325 9.793 16.376 28.417 6.743 41.742zM603.794 574.992c11.88 11.399 12.202 30.343 0.642 42.224-11.399 11.88-30.343 12.202-42.224 0.642l-74.494-71.925-74.333 71.925c-11.88 11.399-30.825 11.238-42.224-0.642s-11.238-30.825 0.642-42.224l83.805-80.915v-17.5h-59.723c-16.536 0-29.862-13.325-29.862-29.862s13.325-29.862 29.862-29.862h59.723v-29.862h-59.723c-16.536 0-29.862-13.325-29.862-29.862s13.325-29.862 29.862-29.862h59.723v-62.774c0-16.536 13.325-29.862 29.862-29.862s29.862 13.325 29.862 29.862v62.774h59.723c16.536 0 29.862 13.325 29.862 29.862s-13.325 29.862-29.862 29.862h-59.723v29.862h59.723c16.536 0 29.862 13.325 29.862 29.862s-13.325 29.862-29.862 29.862h-59.723v12.844l88.461 85.571z" />
<glyph unicode="&#xe919;" horiz-adv-x="8448" d="M1567.7 564.614c0 49.072 0 97.784 0 146.135h171.032c0-48.351 0-96.702 0-145.052h388.61l-33.557-121.238h-355.053c0-87.32 0-172.836 0-256.548 0-22.371-6.134-46.186-18.402-71.444-12.99-23.093-35.361-35.541-67.114-37.346s-72.002 0.722-173.033 0l-56.452 110.954c59.897 0 100.31 1.082 121.238 3.247 7.217 0 12.99 3.789 17.32 11.366s6.495 20.026 6.495 37.346c-0.722 11.546-1.082 78.66-1.082 201.341h-284.692c-28.866 0.722-56.109 5.232-81.727 13.531s-38.789 33.016-39.511 74.15v338.569l171.032 41.381v-33.557c86.598 1.443 173.197 3.247 259.795 5.412 145.052 2.165 236.341 20.567 273.867 55.206h210.001c-29.588-77.939-79.021-125.207-148.3-141.805s-129.898-27.062-181.857-31.392c-45.464-3.608-109.511-5.954-192.14-7.036s-148.119-1.624-196.47-1.624l-24.897 73.609-1.082-265.208h235.981zM2009.351 395.747c7.938-53.402 19.665-102.475 35.181-147.217s43.119-89.485 82.81-134.227l-148.3-21.889c-52.681 40.413-79.923 67.534-101.212 117.689s-36.985 112.037-47.088 185.645h178.609zM1260.275 392.499h188.351c-16.598-78.66-39.691-143.248-69.279-193.764-30.309-51.959-56.938-81.491-108.897-111.8l-147.651 32.779c25.98 30.309 52.681 68.557 80.104 114.743 25.258 49.794 44.382 102.475 57.371 158.042z" />
<glyph unicode="&#xe91a;" horiz-adv-x="8448" d="M3181.669 693.429c12.268-0.722 25.619-1.804 40.052-3.247 34.639-4.33 52.32-27.062 53.042-68.196l-1.082-71.444c0-44.021-16.778-69.279-50.335-75.774s-65.49-10.103-95.799-10.825l-126.65 1.082v-27.062h-125.568v-14.072c156.599 4.33 264.125-4.691 322.579-27.062 31.031-12.268 50.155-28.505 57.371-48.712s10.464-41.134 9.742-62.784c0-16.598 0-30.309 0-41.134s0-27.062 0-48.712c0-38.248-7.938-66.392-23.815-84.433s-42.578-27.423-80.104-28.144l-111.495 4.025-48.712 112.883h48.712c18.041-0.722 29.949 1.985 35.722 8.119s8.66 16.057 8.66 29.768c0 10.103-0.361 18.222-1.082 24.356s-8.66 12.088-23.815 17.861c-24.536 9.381-89.124 12.629-193.764 9.742v-221.908h-171.032v213.249c-69.279-6.495-131.702-15.876-187.269-28.144l-23.815 59.536v-219.743h-169.949v311.754h169.949v-22.732c57.011 12.99 127.372 23.815 211.084 32.474v56.289h128.815v449.229h167.784v-54.045c15.155 2.887 30.67 31.674 48.712 34.56 35.361 5.052 74.33 14.433 114.743 10.825 34.639-2.887 60.98-8.299 79.021-16.237 16.598-7.217 26.34-23.454 29.227-48.712l-2.165-72.526c0-37.526-11.186-60.258-33.557-68.196-14.433-5.773-32.835-9.742-55.206-11.907zM3000.894 816.831v-76.856c20.928 0 41.856 0 62.784 0 24.536-0.722 37.165 5.052 37.887 17.32v25.98c0 11.546-5.773 18.041-17.32 19.485-13.711 2.165-34.279 0.722-61.701-4.33-4.33-0.722-7.577-1.443-9.742-2.165l-11.907 20.567zM3000.894 657.108v-91.412c23.093-0.722 45.103-0.722 66.031 0 24.536 0 36.804 7.217 36.804 21.65v24.897c0 7.938-0.722 14.072-2.165 18.402-2.887 4.33-9.381 7.217-19.485 8.66-30.081 0-52.642 0-67.682 0-3.001 0-7.502 5.934-13.504 17.803zM2635.016 891.522h173.197l-23.815-105.001h-152.63c0-5.773-0.361-14.072-1.082-24.897h165.619l-22.732-86.598h-150.465c-0.722-4.33-1.443-7.938-2.165-10.825-1.443-6.495-2.887-12.99-4.33-19.485h194.846l-23.815-102.836h-211.084c-5.773-10.103-12.268-19.845-19.485-29.227-32.474-44.021-73.969-77.939-124.485-101.753l-125.568 81.634c30.309 26.701 60.619 19.759 82.268 49.346h-82.268l-19.485 102.836h150.465c2.165 7.938 4.691 18.041 7.577 30.309h-119.073l-20.567 86.598h152.63c0.722 5.052 1.443 12.629 2.165 22.732 0 0.722 0 1.443 0 2.165h-141.805l-19.485 105.001h163.454c0 11.546-0.361 23.454-1.082 35.722h173.197c0-9.381 0-21.289 0-35.722z" />
<glyph unicode="&#xe91b;" horiz-adv-x="8448" d="M4056.304 751.883c0-29.588 0-59.536 0-89.846h399.435l-25.98-124.485h-373.456c0-37.526 0-75.413 0-113.66h403.765l-24.897-121.238h-378.868c0-38.248 0-74.691 0-109.33-0.722-41.856-11.546-72.526-32.474-92.011s-55.567-29.588-103.918-30.309l-228.403-1.082-29.227 117.99h163.454c20.206 0 36.083 2.526 47.629 7.577 9.381 5.773 14.433 20.928 15.155 45.464v61.701h-398.198l-49.949 121.238h448.147v113.66h-398.198l-44.537 124.485h442.734v89.846c-38.969-0.722-77.578-1.082-115.825-1.082-136.392-0.722-206.5 1.082-254.129 1.082l-53.295 120.155c37.526 0.722 131.882 1.443 283.068 2.165s253.841 1.443 307.965 2.165c43.299-0.722 75.954 3.247 97.964 11.907s41.675 27.423 58.995 56.289l180.774 1.082c-29.588-77.939-67.835-129.717-114.743-155.336s-108.97-38.428-186.187-38.428c-12.268 0-24.536 0-36.804 0z" />
<glyph unicode="&#xe91c;" horiz-adv-x="8448" d="M5387.603 910.353h2739.2c164.949 0 298.667-133.718 298.667-298.667v-362.667c0-164.949-133.718-298.667-298.667-298.667h-2739.2c-164.949 0-298.667 133.718-298.667 298.667v362.667c0 164.949 133.718 298.667 298.667 298.667z" />
<glyph unicode="&#xe91d;" horiz-adv-x="8448" d="M6266.479 596.327c-1.28-60.8-7.68-119.040-19.2-174.080l48.64-12.8c10.24 57.6 16 119.040 17.28 183.68l-46.72 3.2zM6379.119 314.727c16.64-21.76 36.48-51.84 59.52-89.6l36.48 53.12c-28.8 35.2-57.6 67.2-85.76 96.64 3.84 32.64 5.76 68.48 6.4 106.88v21.12c30.72 19.84 58.88 43.52 83.2 70.4l-33.28 46.72c-15.36-22.4-32-42.24-49.92-60.16v156.16h-57.6v-234.24c-1.28-143.36-31.36-247.040-91.52-312.32l45.44-39.68c40.96 44.8 70.4 106.88 87.040 184.96zM6487.279 435.687v-52.48h133.76v-39.68h-114.56v-51.2h114.56v-43.52h-152.32v-53.76h152.32v-63.36h60.16v63.36h153.6v53.76h-153.6v43.52h115.84v51.2h-115.84v39.68h130.56v52.48h-130.56v40.32h-60.16v-40.32h-133.76zM6583.919 726.247c-31.36-53.76-69.12-96-112.64-126.72l37.12-45.44c12.8 10.24 25.6 21.76 38.4 33.28 12.8-16 28.8-30.72 48-44.8-42.24-16-92.16-28.8-149.76-39.040l28.8-53.12c69.12 15.36 128.64 35.2 177.28 58.24 46.72-23.040 104.32-40.32 173.44-52.48l21.12 54.4c-51.2 8.32-96 19.2-135.040 33.28 37.12 26.24 64.64 56.32 81.92 90.24v48h-171.52c6.4 10.24 12.16 21.12 18.56 32l-55.68 12.16zM6652.399 569.447c-29.44 16-53.76 34.56-71.68 55.68l4.48 5.76h141.44c-17.92-23.040-42.88-43.52-74.24-61.44z" />
<glyph unicode="&#xe91e;" horiz-adv-x="8448" d="M6266.479 596.327c-1.28-60.8-7.68-119.040-19.2-174.080l48.64-12.8c10.24 57.6 16 119.040 17.28 183.68l-46.72 3.2zM6379.119 314.727c16.64-21.76 36.48-51.84 59.52-89.6l36.48 53.12c-28.8 35.2-57.6 67.2-85.76 96.64 3.84 32.64 5.76 68.48 6.4 106.88v21.12c30.72 19.84 58.88 43.52 83.2 70.4l-33.28 46.72c-15.36-22.4-32-42.24-49.92-60.16v156.16h-57.6v-234.24c-1.28-143.36-31.36-247.040-91.52-312.32l45.44-39.68c40.96 44.8 70.4 106.88 87.040 184.96zM6487.279 435.687v-52.48h133.76v-39.68h-114.56v-51.2h114.56v-43.52h-152.32v-53.76h152.32v-63.36h60.16v63.36h153.6v53.76h-153.6v43.52h115.84v51.2h-115.84v39.68h130.56v52.48h-130.56v40.32h-60.16v-40.32h-133.76zM6583.919 726.247c-31.36-53.76-69.12-96-112.64-126.72l37.12-45.44c12.8 10.24 25.6 21.76 38.4 33.28 12.8-16 28.8-30.72 48-44.8-42.24-16-92.16-28.8-149.76-39.040l28.8-53.12c69.12 15.36 128.64 35.2 177.28 58.24 46.72-23.040 104.32-40.32 173.44-52.48l21.12 54.4c-51.2 8.32-96 19.2-135.040 33.28 37.12 26.24 64.64 56.32 81.92 90.24v48h-171.52c6.4 10.24 12.16 21.12 18.56 32l-55.68 12.16zM6652.399 569.447c-29.44 16-53.76 34.56-71.68 55.68l4.48 5.76h141.44c-17.92-23.040-42.88-43.52-74.24-61.44z" />
<glyph unicode="&#xe91f;" horiz-adv-x="8448" d="M7010.159 623.847c-19.2-82.56-42.24-150.4-68.48-204.16l53.76-18.56c28.16 59.52 51.2 128.64 69.12 208l-54.4 14.72zM7394.799 624.487c-33.28-67.84-73.6-126.080-119.68-174.72l46.080-32c48.64 51.2 90.24 111.36 126.080 181.76l-52.48 24.96zM7156.719 719.207v-211.2c-10.24-128-96-237.44-258.56-329.6l37.12-48.64c135.040 83.2 219.52 180.48 253.44 293.12 42.88-120.96 128.64-217.6 257.28-289.92l37.12 48.64c-155.52 83.84-243.84 192.64-264.96 326.4v211.2h-61.44z" />
<glyph unicode="&#xe920;" horiz-adv-x="8448" d="M7010.159 623.847c-19.2-82.56-42.24-150.4-68.48-204.16l53.76-18.56c28.16 59.52 51.2 128.64 69.12 208l-54.4 14.72zM7394.799 624.487c-33.28-67.84-73.6-126.080-119.68-174.72l46.080-32c48.64 51.2 90.24 111.36 126.080 181.76l-52.48 24.96zM7156.719 719.207v-211.2c-10.24-128-96-237.44-258.56-329.6l37.12-48.64c135.040 83.2 219.52 180.48 253.44 293.12 42.88-120.96 128.64-217.6 257.28-289.92l37.12 48.64c-155.52 83.84-243.84 192.64-264.96 326.4v211.2h-61.44z" />
<glyph unicode="&#xe921;" horiz-adv-x="8448" d="M8045.679 401.127h-437.76v-272h61.44v26.24h314.88v-26.24h61.44v272zM7669.359 213.607v129.28h314.88v-129.28h-314.88zM7566.319 460.647c163.84 6.4 312.96 15.36 446.72 26.88 14.72-23.68 29.44-48.64 44.8-75.52l59.52 29.44c-46.72 77.44-96 147.84-147.84 211.84l-55.040-26.24c21.12-26.88 42.24-55.040 62.72-85.76-101.76-9.6-206.72-16.64-315.52-20.48 53.76 48.64 106.24 108.8 158.080 180.48l-63.36 21.76c-85.76-125.44-152.96-193.92-201.6-204.8l11.52-57.6z" />
<glyph unicode="&#xe922;" horiz-adv-x="8448" d="M8045.679 401.127h-437.76v-272h61.44v26.24h314.88v-26.24h61.44v272zM7669.359 213.607v129.28h314.88v-129.28h-314.88zM7566.319 460.647c163.84 6.4 312.96 15.36 446.72 26.88 14.72-23.68 29.44-48.64 44.8-75.52l59.52 29.44c-46.72 77.44-96 147.84-147.84 211.84l-55.040-26.24c21.12-26.88 42.24-55.040 62.72-85.76-101.76-9.6-206.72-16.64-315.52-20.48 53.76 48.64 106.24 108.8 158.080 180.48l-63.36 21.76c-85.76-125.44-152.96-193.92-201.6-204.8l11.52-57.6z" />
<glyph unicode="&#xe923;" horiz-adv-x="8448" d="M5970.799 478.852c-1.037-9.081-1.037-18.94 0-29.057v-76.531c0-139.318-95.473-257.103-223.895-291.347v45.918c0 43.067-34.764 77.831-77.571 77.831h-0.26c-42.808 0-77.831-34.764-77.831-77.831v-45.918c-128.422 34.504-223.635 152.29-223.635 291.347v131.271c34.505-28.019 80.685-79.128 77.831-149.696 28.797 132.831 85.874 152.809 134.129 207.549 62.785 71.345 81.463 149.696 45.401 224.933 156.182-54.222 196.654-263.848 183.682-374.109 56.298 99.884 127.124 126.605 162.148 133.611v-67.972z" />
</font>
</defs>
</svg>
